Category: Rock

  1. Vogrel Reply
    Few artists can truly say that through their craft they’ve secured a loyal and large support base that watch, anticipate & talk about their every move. Few artists can admit to & be respected as, be. Sydney. 25 Tracks. Followers. Stream Tracks and Playlists from STEVE PLAY on .
  2. Kajijin Reply
    Jul 09,  · STEVE STEVENS AMAZING GUITAR SOLO live 7/7/ piazzola sul brenta VILLA CONTARINI PADOVA ITALY HYDROGEN FESTIVAL Missing: Steve Pearson.
  3. Moogukora Reply
    View Steve Pearson’s profile on LinkedIn, the world's largest professional community. Steve has 1 job listed on their profile. See the complete profile on LinkedIn and discover Steve’s connections and jobs at similar mmanhepalvepenswafiwinwoodsstononas.coinfo: Consultant Developer at .
  4. Grogis Reply
    Steve is an NPC located by the steps in the upper level of the Skeletal Wyvern area in the Asgarnian Ice mmanhepalvepenswafiwinwoodsstononas.coinfo players attempt to attack the skeletal wyverns in the upper area, he will stop them from doing so, claiming the upper area is only for those who have skeletal wyverns as a Slayer mmanhepalvepenswafiwinwoodsstononas.coinfo wields a steel mace, an elemental shield, and a set of Bandos mmanhepalvepenswafiwinwoodsstononas.coinfog: ESP.
  5. Nagor Reply
    Steve Pearson music CDs Henry was at the time a young man. It was the only music. Here are the words: 'Tis the gift to be simple, 'tis the gift to be free, 'Tis the gift to come down where we ought to be, And when we find ourselves in the place just right, 'Twill be in the valley of love and mmanhepalvepenswafiwinwoodsstononas.coinfog: ESP.
  6. Mezragore Reply
    The World’s largest gravesite collection. Contribute, create and discover gravesites from all over the world. Member Profile: Steve Pearson, a Find A Grave.
  7. Vuhn Reply
    Sep 08,  · Track 3 Peak level % Test CRC A2C0BE93 Copy OK Track 4 Peak level % Test CRC BCCD49B9 Copy OK Track 5 Peak level % Test CRC FBF8B4F1 Copy OK Track 6 Peak level % Test CRC F20E Copy OK Track 7 Peak level % Test CRC 5E02C1F5 Copy OK Track 8 Peak level % Test CRC B Copy OK Track 9 Peak level % Test CRC.
  8. Moogumi Reply
    Traces is the third solo studio album by American singer and songwriter Steve mmanhepalvepenswafiwinwoodsstononas.coinfo was released on October 5, , through Fantasy Records. It was his first solo album in 24 years, following 's For the Love of Strange Medicine, his first appearance in a studio album since his last appearance with Journey on their album Trial by Fire as well as his first release of new music since his Genre: AOR, pop rock.